  0
SECTION
  2
HEADER
  9
$ACADVER
  1
AC1021
  9
$ACADMAINTVER
 70
     1
  9
$DWGCODEPAGE
  3
ANSI_936
  9
$LASTSAVEDBY
  1
Administrator
  9
$INSBASE
 10
0.0
 20
0.0
 30
0.0
  9
$EXTMIN
 10
1046.847018369904
 20
404.4280292988486
 30
0.0
  9
$EXTMAX
 10
1367.872282433003
 20
915.9368972269385
 30
0.0
  9
$LIMMIN
 10
0.0
 20
0.0
  9
$LIMMAX
 10
420.0
 20
297.0
  9
$ORTHOMODE
 70
     0
  9
$REGENMODE
 70
     1
  9
$FILLMODE
 70
     1
  9
$QTEXTMODE
 70
     0
  9
$MIRRTEXT
 70
     0
  9
$LTSCALE
 40
1.0
  9
$ATTMODE
 70
     1
  9
$TEXTSIZE
 40
2.5
  9
$TRACEWID
 40
1.0
  9
$TEXTSTYLE
  7
Standard
  9
$CLAYER
  8
0
  9
$CELTYPE
  6
ByLayer
  9
$CECOLOR
 62
   256
  9
$CELTSCALE
 40
1.0
  9
$DISPSILH
 70
     0
  9
$DIMSCALE
 40
1.0
  9
$DIMASZ
 40
2.5
  9
$DIMEXO
 40
0.625
  9
$DIMDLI
 40
3.75
  9
$DIMRND
 40
0.0
  9
$DIMDLE
 40
0.0
  9
$DIMEXE
 40
1.25
  9
$DIMTP
 40
0.0
  9
$DIMTM
 40
0.0
  9
$DIMTXT
 40
2.5
  9
$DIMCEN
 40
2.5
  9
$DIMTSZ
 40
0.0
  9
$DIMTOL
 70
     0
  9
$DIMLIM
 70
     0
  9
$DIMTIH
 70
     0
  9
$DIMTOH
 70
     0
  9
$DIMSE1
 70
     0
  9
$DIMSE2
 70
     0
  9
$DIMTAD
 70
     1
  9
$DIMZIN
 70
     8
  9
$DIMBLK
  1

  9
$DIMASO
 70
     1
  9
$DIMSHO
 70
     1
  9
$DIMPOST
  1

  9
$DIMAPOST
  1

  9
$DIMALT
 70
     0
  9
$DIMALTD
 70
     3
  9
$DIMALTF
 40
0.03937007874016
  9
$DIMLFAC
 40
1.0
  9
$DIMTOFL
 70
     1
  9
$DIMTVP
 40
0.0
  9
$DIMTIX
 70
     0
  9
$DIMSOXD
 70
     0
  9
$DIMSAH
 70
     0
  9
$DIMBLK1
  1

  9
$DIMBLK2
  1

  9
$DIMSTYLE
  2
ISO-25
  9
$DIMCLRD
 70
     0
  9
$DIMCLRE
 70
     0
  9
$DIMCLRT
 70
     0
  9
$DIMTFAC
 40
1.0
  9
$DIMGAP
 40
0.625
  9
$DIMJUST
 70
     0
  9
$DIMSD1
 70
     0
  9
$DIMSD2
 70
     0
  9
$DIMTOLJ
 70
     0
  9
$DIMTZIN
 70
     8
  9
$DIMALTZ
 70
     0
  9
$DIMALTTZ
 70
     0
  9
$DIMUPT
 70
     0
  9
$DIMDEC
 70
     2
  9
$DIMTDEC
 70
     2
  9
$DIMALTU
 70
     2
  9
$DIMALTTD
 70
     3
  9
$DIMTXSTY
  7
Standard
  9
$DIMAUNIT
 70
     0
  9
$DIMADEC
 70
     0
  9
$DIMALTRND
 40
0.0
  9
$DIMAZIN
 70
     0
  9
$DIMDSEP
 70
    44
  9
$DIMATFIT
 70
     3
  9
$DIMFRAC
 70
     0
  9
$DIMLDRBLK
  1

  9
$DIMLUNIT
 70
     2
  9
$DIMLWD
 70
    -2
  9
$DIMLWE
 70
    -2
  9
$DIMTMOVE
 70
     0
  9
$DIMFXL
 40
1.0
  9
$DIMFXLON
 70
     0
  9
$DIMJOGANG
 40
0.7853981633974483
  9
$DIMTFILL
 70
     0
  9
$DIMTFILLCLR
 70
     0
  9
$DIMARCSYM
 70
     0
  9
$DIMLTYPE
  6

  9
$DIMLTEX1
  6

  9
$DIMLTEX2
  6

  9
$LUNITS
 70
     2
  9
$LUPREC
 70
     4
  9
$SKETCHINC
 40
1.0
  9
$FILLETRAD
 40
0.0
  9
$AUNITS
 70
     0
  9
$AUPREC
 70
     0
  9
$MENU
  1
.
  9
$ELEVATION
 40
0.0
  9
$PELEVATION
 40
0.0
  9
$THICKNESS
 40
0.0
  9
$LIMCHECK
 70
     0
  9
$CHAMFERA
 40
0.0
  9
$CHAMFERB
 40
0.0
  9
$CHAMFERC
 40
0.0
  9
$CHAMFERD
 40
0.0
  9
$SKPOLY
 70
     0
  9
$TDCREATE
 40
2458176.379424306
  9
$TDUCREATE
 40
2458176.046090972
  9
$TDUPDATE
 40
2458176.379982141
  9
$TDUUPDATE
 40
2458176.046648808
  9
$TDINDWG
 40
0.0005583565
  9
$TDUSRTIMER
 40
0.0005583102
  9
$USRTIMER
 70
     1
  9
$ANGBASE
 50
0.0
  9
$ANGDIR
 70
     0
  9
$PDMODE
 70
     0
  9
$PDSIZE
 40
0.0
  9
$PLINEWID
 40
0.0
  9
$SPLFRAME
 70
     0
  9
$SPLINETYPE
 70
     6
  9
$SPLINESEGS
 70
     8
  9
$HANDSEED
  5
1B6
  9
$SURFTAB1
 70
     6
  9
$SURFTAB2
 70
     6
  9
$SURFTYPE
 70
     6
  9
$SURFU
 70
     6
  9
$SURFV
 70
     6
  9
$UCSBASE
  2

  9
$UCSNAME
  2

  9
$UCSORG
 10
0.0
 20
0.0
 30
0.0
  9
$UCSXDIR
 10
1.0
 20
0.0
 30
0.0
  9
$UCSYDIR
 10
0.0
 20
1.0
 30
0.0
  9
$UCSORTHOREF
  2

  9
$UCSORTHOVIEW
 70
     0
  9
$UCSORGTOP
 10
0.0
 20
0.0
 30
0.0
  9
$UCSORGBOTTOM
 10
0.0
 20
0.0
 30
0.0
  9
$UCSORGLEFT
 10
0.0
 20
0.0
 30
0.0
  9
$UCSORGRIGHT
 10
0.0
 20
0.0
 30
0.0
  9
$UCSORGFRONT
 10
0.0
 20
0.0
 30
0.0
  9
$UCSORGBACK
 10
0.0
 20
0.0
 30
0.0
  9
$PUCSBASE
  2

  9
$PUCSNAME
  2

  9
$PUCSORG
 10
0.0
 20
0.0
 30
0.0
  9
$PUCSXDIR
 10
1.0
 20
0.0
 30
0.0
  9
$PUCSYDIR
 10
0.0
 20
1.0
 30
0.0
  9
$PUCSORTHOREF
  2

  9
$PUCSORTHOVIEW
 70
     0
  9
$PUCSORGTOP
 10
0.0
 20
0.0
 30
0.0
  9
$PUCSORGBOTTOM
 10
0.0
 20
0.0
 30
0.0
  9
$PUCSORGLEFT
 10
0.0
 20
0.0
 30
0.0
  9
$PUCSORGRIGHT
 10
0.0
 20
0.0
 30
0.0
  9
$PUCSORGFRONT
 10
0.0
 20
0.0
 30
0.0
  9
$PUCSORGBACK
 10
0.0
 20
0.0
 30
0.0
  9
$USERI1
 70
     0
  9
$USERI2
 70
     0
  9
$USERI3
 70
     0
  9
$USERI4
 70
     0
  9
$USERI5
 70
     0
  9
$USERR1
 40
0.0
  9
$USERR2
 40
0.0
  9
$USERR3
 40
0.0
  9
$USERR4
 40
0.0
  9
$USERR5
 40
0.0
  9
$WORLDVIEW
 70
     1
  9
$SHADEDGE
 70
     3
  9
$SHADEDIF
 70
    70
  9
$TILEMODE
 70
     1
  9
$MAXACTVP
 70
    64
  9
$PINSBASE
 10
0.0
 20
0.0
 30
0.0
  9
$PLIMCHECK
 70
     0
  9
$PEXTMIN
 10
0.0
 20
0.0
 30
0.0
  9
$PEXTMAX
 10
0.0
 20
0.0
 30
0.0
  9
$PLIMMIN
 10
0.0
 20
0.0
  9
$PLIMMAX
 10
12.0
 20
9.0
  9
$UNITMODE
 70
     0
  9
$VISRETAIN
 70
     1
  9
$PLINEGEN
 70
     0
  9
$PSLTSCALE
 70
     1
  9
$TREEDEPTH
 70
  3020
  9
$CMLSTYLE
  2
Standard
  9
$CMLJUST
 70
     0
  9
$CMLSCALE
 40
20.0
  9
$PROXYGRAPHICS
 70
     1
  9
$MEASUREMENT
 70
     1
  9
$CELWEIGHT
370
    -1
  9
$ENDCAPS
280
     0
  9
$JOINSTYLE
280
     0
  9
$LWDISPLAY
290
     0
  9
$INSUNITS
 70
     4
  9
$HYPERLINKBASE
  1

  9
$STYLESHEET
  1

  9
$XEDIT
290
     1
  9
$CEPSNTYPE
380
     0
  9
$PSTYLEMODE
290
     1
  9
$FINGERPRINTGUID
  2
{05AD0296-CA2D-4B4E-AD64-0C46447CD248}
  9
$VERSIONGUID
  2
{9024F6E4-8B4E-4744-86CB-E9346FE17BA7}
  9
$EXTNAMES
290
     1
  9
$PSVPSCALE
 40
0.0
  9
$OLESTARTUP
290
     0
  9
$SORTENTS
280
   127
  9
$INDEXCTL
280
     0
  9
$HIDETEXT
280
     1
  9
$XCLIPFRAME
290
     0
  9
$HALOGAP
280
     0
  9
$OBSCOLOR
 70
   257
  9
$OBSLTYPE
280
     0
  9
$INTERSECTIONDISPLAY
280
     0
  9
$INTERSECTIONCOLOR
 70
   257
  9
$DIMASSOC
280
     2
  9
$PROJECTNAME
  1

  9
$CAMERADISPLAY
290
     0
  9
$LENSLENGTH
 40
50.0
  9
$CAMERAHEIGHT
 40
0.0
  9
$STEPSPERSEC
 40
2.0
  9
$STEPSIZE
 40
6.0
  9
$3DDWFPREC
 40
2.0
  9
$PSOLWIDTH
 40
5.0
  9
$PSOLHEIGHT
 40
80.0
  9
$LOFTANG1
 40
1.570796326794896
  9
$LOFTANG2
 40
1.570796326794896
  9
$LOFTMAG1
 40
0.0
  9
$LOFTMAG2
 40
0.0
  9
$LOFTPARAM
 70
     7
  9
$LOFTNORMALS
280
     1
  9
$LATITUDE
 40
37.795
  9
$LONGITUDE
 40
-122.394
  9
$NORTHDIRECTION
 40
0.0
  9
$TIMEZONE
 70
 -8000
  9
$LIGHTGLYPHDISPLAY
280
     1
  9
$TILEMODELIGHTSYNCH
280
     1
  9
$CMATERIAL
347
ED
  9
$SOLIDHIST
280
     1
  9
$SHOWHIST
280
     1
  9
$DWFFRAME
280
     2
  9
$DGNFRAME
280
     0
  9
$REALWORLDSCALE
290
     1
  9
$INTERFERECOLOR
 62
     1
  9
$INTERFEREOBJVS
345
FA
  9
$INTERFEREVPVS
346
F7
  9
$CSHADOW
280
     0
  9
$SHADOWPLANELOCATION
 40
0.0
  0
ENDSEC
  0
SECTION
  2
CLASSES
  0
CLASS
  1
ACDBDICTIONARYWDFLT
  2
AcDbDictionaryWithDefault
  3
ObjectDBX Classes
 90
        0
 91
        1
280
     0
281
     0
  0
CLASS
  1
DICTIONARYVAR
  2
AcDbDictionaryVar
  3
ObjectDBX Classes
 90
        0
 91
        3
280
     0
281
     0
  0
CLASS
  1
TABLESTYLE
  2
AcDbTableStyle
  3
ObjectDBX Classes
 90
     4095
 91
        1
280
     0
281
     0
  0
CLASS
  1
MATERIAL
  2
AcDbMaterial
  3
ObjectDBX Classes
 90
     1024
 91
        3
280
     0
281
     0
  0
CLASS
  1
VISUALSTYLE
  2
AcDbVisualStyle
  3
ObjectDBX Classes
 90
     4095
 91
       16
280
     0
281
     0
  0
CLASS
  1
DIMASSOC
  2
AcDbDimAssoc
  3
"AcDbDimAssoc|Product Desc:     AcDim ARX App For Dimension|Company:          Autodesk, Inc.|WEB Address:      www.autodesk.com"
 90
        0
 91
        6
280
     0
281
     0
  0
CLASS
  1
SORTENTSTABLE
  2
AcDbSortentsTable
  3
ObjectDBX Classes
 90
        0
 91
        1
280
     0
281
     0
  0
ENDSEC
  0
SECTION
  2
TABLES
  0
TABLE
  2
VPORT
  5
8
330
0
100
AcDbSymbolTable
 70
     1
  0
VPORT
  5
EB
330
8
100
AcDbSymbolTableRecord
100
AcDbViewportTableRecord
  2
*Active
 70
     0
 10
0.0
 20
0.0
 11
1.0
 21
1.0
 12
1229.765561417778
 22
570.9302164282977
 13
0.0
 23
0.0
 14
10.0
 24
10.0
 15
10.0
 25
10.0
 16
0.0
 26
0.0
 36
1.0
 17
0.0
 27
0.0
 37
0.0
 40
1141.987829606561
 41
2.153968253968253
 42
50.0
 43
0.0
 44
0.0
 50
0.0
 51
0.0
 71
     0
 72
  1000
 73
     1
 74
     3
 75
     0
 76
     0
 77
     0
 78
     0
281
     0
 65
     1
110
0.0
120
0.0
130
0.0
111
1.0
121
0.0
131
0.0
112
0.0
122
1.0
132
0.0
 79
     0
146
0.0
348
F6
 60
     2
 61
     5
292
     1
282
     1
141
0.0
142
0.0
 63
   250
421
  3355443
  0
ENDTAB
  0
TABLE
  2
LTYPE
  5
5
330
0
100
AcDbSymbolTable
 70
     1
  0
LTYPE
  5
14
330
5
100
AcDbSymbolTableRecord
100
AcDbLinetypeTableRecord
  2
ByBlock
 70
     0
  3

 72
    65
 73
     0
 40
0.0
  0
LTYPE
  5
15
330
5
100
AcDbSymbolTableRecord
100
AcDbLinetypeTableRecord
  2
ByLayer
 70
     0
  3

 72
    65
 73
     0
 40
0.0
  0
LTYPE
  5
16
330
5
100
AcDbSymbolTableRecord
100
AcDbLinetypeTableRecord
  2
Continuous
 70
     0
  3
Solid line
 72
    65
 73
     0
 40
0.0
  0
ENDTAB
  0
TABLE
  2
LAYER
  5
2
102
{ACAD_XDICTIONARY
360
15B
102
}
330
0
100
AcDbSymbolTable
 70
    11
  0
LAYER
  5
10
330
2
100
AcDbSymbolTableRecord
100
AcDbLayerTableRecord
  2
0
 70
     0
 62
     7
  6
Continuous
370
    -3
390
F
347
EF
  0
LAYER
  5
123
330
2
100
AcDbSymbolTableRecord
100
AcDbLayerTableRecord
  2
layer2
 70
     0
 62
     1
  6
Continuous
370
    -3
390
F
347
EF
  0
LAYER
  5
124
330
2
100
AcDbSymbolTableRecord
100
AcDbLayerTableRecord
  2
layer3
 70
     0
 62
     2
  6
Continuous
370
    -3
390
F
347
EF
  0
LAYER
  5
125
330
2
100
AcDbSymbolTableRecord
100
AcDbLayerTableRecord
  2
layer4
 70
     0
 62
     3
  6
Continuous
370
    -3
390
F
347
EF
  0
LAYER
  5
126
330
2
100
AcDbSymbolTableRecord
100
AcDbLayerTableRecord
  2
layer5
 70
     0
 62
     5
  6
Continuous
370
    -3
390
F
347
EF
  0
LAYER
  5
127
330
2
100
AcDbSymbolTableRecord
100
AcDbLayerTableRecord
  2
layer6
 70
     0
 62
   140
  6
Continuous
370
    -3
390
F
347
EF
  0
LAYER
  5
128
330
2
100
AcDbSymbolTableRecord
100
AcDbLayerTableRecord
  2
layer7
 70
     0
 62
    30
  6
Continuous
370
    -3
390
F
347
EF
  0
LAYER
  5
129
330
2
100
AcDbSymbolTableRecord
100
AcDbLayerTableRecord
  2
layer8
 70
     0
 62
    60
  6
Continuous
370
    -3
390
F
347
EF
  0
LAYER
  5
12A
330
2
100
AcDbSymbolTableRecord
100
AcDbLayerTableRecord
  2
layer9
 70
     0
 62
   210
  6
Continuous
370
    -3
390
F
347
EF
  0
LAYER
  5
14F
330
2
100
AcDbSymbolTableRecord
100
AcDbLayerTableRecord
  2
Defpoints
 70
     0
 62
    24
  6
Continuous
290
     0
370
    -3
390
F
347
EF
  0
LAYER
  5
150
330
2
100
AcDbSymbolTableRecord
100
AcDbLayerTableRecord
  2
6下模板
 70
     0
 62
     6
  6
Continuous
370
    30
390
F
347
EF
1001
AcadStringInfo
1000
MIFCodePage
1070
     5
  0
ENDTAB
  0
TABLE
  2
STYLE
  5
3
330
0
100
AcDbSymbolTable
 70
     2
  0
STYLE
  5
11
330
3
100
AcDbSymbolTableRecord
100
AcDbTextStyleTableRecord
  2
Standard
 70
     0
 40
0.0
 41
1.0
 50
0.0
 71
     0
 42
2.5
  3
txt
  4
gbcbig.shx
  0
STYLE
  5
151
330
3
100
AcDbSymbolTableRecord
100
AcDbTextStyleTableRecord
  2
中文字体
 70
     0
 40
0.0
 41
1.0
 50
0.0
 71
     0
 42
3.0
  3

  4

1001
ACAD
1000
SimSun
1071
    34306
1001
AcadStringInfo
1000
MIFCodePage
1070
     5
  0
ENDTAB
  0
TABLE
  2
VIEW
  5
6
330
0
100
AcDbSymbolTable
 70
     0
  0
ENDTAB
  0
TABLE
  2
UCS
  5
7
330
0
100
AcDbSymbolTable
 70
     0
  0
ENDTAB
  0
TABLE
  2
APPID
  5
9
330
0
100
AcDbSymbolTable
 70
     7
  0
APPID
  5
12
330
9
100
AcDbSymbolTableRecord
100
AcDbRegAppTableRecord
  2
ACAD
 70
     0
  0
APPID
  5
9E
330
9
100
AcDbSymbolTableRecord
100
AcDbRegAppTableRecord
  2
ACAD_PSEXT
 70
     0
  0
APPID
  5
156
330
9
100
AcDbSymbolTableRecord
100
AcDbRegAppTableRecord
  2
ACAD_DSTYLE_DIMJOGGED_JOGANGLE_SYMBOL
 70
     0
  0
APPID
  5
157
330
9
100
AcDbSymbolTableRecord
100
AcDbRegAppTableRecord
  2
ACAD_DSTYLE_DIMJAG
 70
     0
  0
APPID
  5
158
330
9
100
AcDbSymbolTableRecord
100
AcDbRegAppTableRecord
  2
ACAD_DSTYLE_DIMTALN
 70
     0
  0
APPID
  5
159
330
9
100
AcDbSymbolTableRecord
100
AcDbRegAppTableRecord
  2
ACAD_DSTYLE_DIMBREAK
 70
     0
  0
APPID
  5
15A
330
9
100
AcDbSymbolTableRecord
100
AcDbRegAppTableRecord
  2
AcadStringInfo
 70
     0
  0
ENDTAB
  0
TABLE
  2
DIMSTYLE
  5
A
330
0
100
AcDbSymbolTable
 70
     5
100
AcDbDimStyleTable
 71
     1
340
27
  0
DIMSTYLE
105
27
330
A
100
AcDbSymbolTableRecord
100
AcDbDimStyleTableRecord
  2
ISO-25
 70
     0
 41
2.5
 42
0.625
 43
3.75
 44
1.25
 73
     0
 74
     0
 77
     1
 78
     8
140
2.5
141
2.5
143
0.03937007874016
147
0.625
171
     3
172
     1
271
     2
272
     2
274
     3
278
    44
283
     0
284
     8
340
11
  0
DIMSTYLE
105
152
330
A
100
AcDbSymbolTableRecord
100
AcDbDimStyleTableRecord
  2
1-8
 70
     0
 40
11.0
 41
2.0
 42
1.5
 43
5.0
 44
1.0
 50
90.0
 73
     0
 74
     0
 77
     1
 78
     8
 79
     2
140
2.299999999999998
141
0.1
147
0.33
172
     1
176
   104
177
   104
178
   200
179
     1
271
     1
272
     1
283
     0
284
     8
340
151
345
15
346
15
347
15
371
    13
372
    13
1001
ACAD_DSTYLE_DIMBREAK
1070
   391
1040
3.75
1001
ACAD_DSTYLE_DIMJAG
1070
   388
1040
1.5
1001
ACAD_DSTYLE_DIMTALN
1070
   392
1070
     0
1001
ACAD_DSTYLE_DIMJOGGED_JOGANGLE_SYMBOL
1070
   384
1040
1.570796326794896
  0
DIMSTYLE
105
153
330
A
100
AcDbSymbolTableRecord
100
AcDbDimStyleTableRecord
  2
STANDARD
 70
     0
 41
3.5
 47
0.01
 48
0.01
 71
     1
 73
     0
 74
     0
 77
     1
 78
     8
140
3.5
271
     2
272
     2
284
     8
340
11
  0
DIMSTYLE
105
154
102
{ACAD_REACTORS
330
166
330
169
330
16C
330
17E
330
181
330
184
102
}
330
A
100
AcDbSymbolTableRecord
100
AcDbDimStyleTableRecord
  2
usally
 70
     0
 41
22.0
 42
2.0
 43
5.0
 44
1.25
 73
     0
 74
     0
 77
     1
 78
     9
 79
     2
140
25.4
141
0.0
147
0.5
172
     1
176
   104
177
   104
178
   200
179
     2
271
     2
272
     2
340
11
371
     9
372
     9
  0
DIMSTYLE
105
155
330
A
100
AcDbSymbolTableRecord
100
AcDbDimStyleTableRecord
  2
副本 (2) 5
 70
     0
 40
5.0
 41
3.0
 42
1.0
 43
0.5
 44
1.0
 73
     0
 74
     0
 77
     1
 78
     8
 79
     2
140
3.5
141
1.0
143
0.03937007874016
147
0.625
171
     3
172
     1
176
   251
177
   251
179
     2
271
     2
272
     2
274
     3
283
     0
284
     8
340
11
341
12B
371
    13
372
    13
  0
ENDTAB
  0
TABLE
  2
BLOCK_RECORD
  5
1
330
0
100
AcDbSymbolTable
 70
     9
  0
BLOCK_RECORD
  5
1F
330
1
100
AcDbSymbolTableRecord
100
AcDbBlockTableRecord
  2
*Model_Space
340
22
 70
     0
280
     1
281
     0
  0
BLOCK_RECORD
  5
D2
330
1
100
AcDbSymbolTableRecord
100
AcDbBlockTableRecord
  2
*Paper_Space
340
D3
 70
     0
280
     1
281
     0
  0
BLOCK_RECORD
  5
D6
330
1
100
AcDbSymbolTableRecord
100
AcDbBlockTableRecord
  2
*Paper_Space0
340
D7
 70
     0
280
     1
281
     0
  0
BLOCK_RECORD
  5
12B
330
1
100
AcDbSymbolTableRecord
100
AcDbBlockTableRecord
  2
_DotSmall
340
0
 70
     0
280
     1
281
     0
  0
BLOCK_RECORD
  5
12F
330
1
100
AcDbSymbolTableRecord
100
AcDbBlockTableRecord
  2
*D2
340
0
 70
     0
280
     1
281
     0
  0
BLOCK_RECORD
  5
13B
330
1
100
AcDbSymbolTableRecord
100
AcDbBlockTableRecord
  2
*D3
340
0
 70
     0
280
     1
281
     0
  0
BLOCK_RECORD
  5
147
330
1
100
AcDbSymbolTableRecord
100
AcDbBlockTableRecord
  2
*D4
340
0
 70
     0
280
     1
281
     0
  0
BLOCK_RECORD
  5
188
330
1
100
AcDbSymbolTableRecord
100
AcDbBlockTableRecord
  2
*D6
340
0
 70
     0
280
     1
281
     0
  0
BLOCK_RECORD
  5
194
330
1
100
AcDbSymbolTableRecord
100
AcDbBlockTableRecord
  2
*D7
340
0
 70
     0
280
     1
281
     0
  0
BLOCK_RECORD
  5
1A0
330
1
100
AcDbSymbolTableRecord
100
AcDbBlockTableRecord
  2
*D8
340
0
 70
     0
280
     1
281
     0
  0
ENDTAB
  0
ENDSEC
  0
SECTION
  2
BLOCKS
  0
BLOCK
  5
20
330
1F
100
AcDbEntity
  8
0
100
AcDbBlockBegin
  2
*Model_Space
 70
     0
 10
0.0
 20
0.0
 30
0.0
  3
*Model_Space
  1

  0
ENDBLK
  5
21
330
1F
100
AcDbEntity
  8
0
100
AcDbBlockEnd
  0
BLOCK
  5
D4
330
D2
100
AcDbEntity
 67
     1
  8
0
100
AcDbBlockBegin
  2
*Paper_Space
 70
     0
 10
0.0
 20
0.0
 30
0.0
  3
*Paper_Space
  1

  0
ENDBLK
  5
D5
330
D2
100
AcDbEntity
 67
     1
  8
0
100
AcDbBlockEnd
  0
BLOCK
  5
D8
330
D6
100
AcDbEntity
 67
     1
  8
0
100
AcDbBlockBegin
  2
*Paper_Space0
 70
     0
 10
0.0
 20
0.0
 30
0.0
  3
*Paper_Space0
  1

  0
ENDBLK
  5
D9
330
D6
100
AcDbEntity
 67
     1
  8
0
100
AcDbBlockEnd
  0
BLOCK
  5
12C
330
12B
100
AcDbEntity
  8
0
100
AcDbBlockBegin
  2
_DotSmall
 70
     0
 10
0.0
 20
0.0
 30
0.0
  3
_DotSmall
  1

  0
LWPOLYLINE
  5
12D
330
12B
100
AcDbEntity
  8
0
  6
ByBlock
 62
     0
100
AcDbPolyline
 90
        2
 70
     1
 43
0.5
 10
-0.0625
 20
0.0
 42
1.0
 10
0.0625
 20
0.0
 42
1.0
  0
ENDBLK
  5
12E
330
12B
100
AcDbEntity
  8
0
100
AcDbBlockEnd
  0
BLOCK
  5
130
330
12F
100
AcDbEntity
  8
0
 48
0.6
370
    25
100
AcDbBlockBegin
  2
*D2
 70
     1
 10
0.0
 20
0.0
 30
0.0
  3
*D2
  1

  0
LINE
  5
131
330
12F
100
AcDbEntity
  8
0
 62
   104
 48
0.6
370
     9
100
AcDbLine
 10
160274.2134612179
 20
-77064.42059664492
 30
0.0
 11
160274.2134612179
 21
-76987.13960320137
 31
0.0
  0
LINE
  5
132
330
12F
100
AcDbEntity
  8
0
 62
   104
 48
0.6
370
     9
100
AcDbLine
 10
160529.2134612179
 20
-77064.42059664492
 30
0.0
 11
160529.2134612179
 21
-76987.13960320137
 31
0.0
  0
LINE
  5
133
330
12F
100
AcDbEntity
  8
0
 62
   104
 48
0.6
370
     9
100
AcDbLine
 10
160296.2134612179
 20
-76988.38960320137
 30
0.0
 11
160507.2134612179
 21
-76988.38960320137
 31
0.0
  0
SOLID
  5
134
330
12F
100
AcDbEntity
  8
0
 62
   104
 48
0.6
370
    25
100
AcDbTrace
 10
160296.2134612179
 20
-76984.7229365347
 30
0.0
 11
160296.2134612179
 21
-76992.05626986804
 31
0.0
 12
160274.2134612179
 22
-76988.38960320137
 32
0.0
 13
160274.2134612179
 23
-76988.38960320137
 33
0.0
  0
SOLID
  5
135
330
12F
100
AcDbEntity
  8
0
 62
   104
 48
0.6
370
    25
100
AcDbTrace
 10
160507.2134612179
 20
-76984.7229365347
 30
0.0
 11
160507.2134612179
 21
-76992.05626986804
 31
0.0
 12
160529.2134612179
 22
-76988.38960320137
 32
0.0
 13
160529.2134612179
 23
-76988.38960320137
 33
0.0
  0
MTEXT
  5
136
330
12F
100
AcDbEntity
  8
0
 62
   200
 48
0.6
370
    25
100
AcDbMText
 10
160401.7134612179
 20
-76975.18960320137
 30
0.0
 40
25.4
 41
0.0
 46
0.0
 71
     5
 72
     1
  1
\A1;255
 73
     1
 44
1.0
  0
POINT
  5
137
330
12F
100
AcDbEntity
  8
Defpoints
 62
     0
 48
0.6
370
    25
100
AcDbPoint
 10
160274.2134612179
 20
-77066.42059664494
 30
0.0
  0
POINT
  5
138
330
12F
100
AcDbEntity
  8
Defpoints
 62
     0
 48
0.6
370
    25
100
AcDbPoint
 10
160529.2134612179
 20
-77066.42059664494
 30
0.0
  0
POINT
  5
139
330
12F
100
AcDbEntity
  8
Defpoints
 62
     0
 48
0.6
370
    25
100
AcDbPoint
 10
160529.2134612179
 20
-76988.38960320137
 30
0.0
  0
ENDBLK
  5
13A
330
12F
100
AcDbEntity
  8
0
 48
0.6
370
    25
100
AcDbBlockEnd
  0
BLOCK
  5
13C
330
13B
100
AcDbEntity
  8
0
 48
0.6
370
    25
100
AcDbBlockBegin
  2
*D3
 70
     1
 10
0.0
 20
0.0
 30
0.0
  3
*D3
  1

  0
LINE
  5
13D
330
13B
100
AcDbEntity
  8
0
 62
   104
 48
0.6
370
     9
100
AcDbLine
 10
160306.2645560667
 20
-77021.40082426001
 30
0.0
 11
160232.8381971548
 21
-77021.40082426001
 31
0.0
  0
LINE
  5
13E
330
13B
100
AcDbEntity
  8
0
 62
   104
 48
0.6
370
     9
100
AcDbLine
 10
160306.2645560667
 20
-77403.40082426001
 30
0.0
 11
160232.8381971548
 21
-77403.40082426001
 31
0.0
  0
LINE
  5
13F
330
13B
100
AcDbEntity
  8
0
 62
   104
 48
0.6
370
     9
100
AcDbLine
 10
160234.0881971548
 20
-77043.40082426001
 30
0.0
 11
160234.0881971548
 21
-77381.40082426001
 31
0.0
  0
SOLID
  5
140
330
13B
100
AcDbEntity
  8
0
 62
   104
 48
0.6
370
    25
100
AcDbTrace
 10
160230.4215304881
 20
-77043.40082426001
 30
0.0
 11
160237.7548638214
 21
-77043.40082426001
 31
0.0
 12
160234.0881971548
 22
-77021.40082426001
 32
0.0
 13
160234.0881971548
 23
-77021.40082426001
 33
0.0
  0
SOLID
  5
141
330
13B
100
AcDbEntity
  8
0
 62
   104
 48
0.6
370
    25
100
AcDbTrace
 10
160230.4215304881
 20
-77381.40082426001
 30
0.0
 11
160237.7548638214
 21
-77381.40082426001
 31
0.0
 12
160234.0881971548
 22
-77403.40082426001
 32
0.0
 13
160234.0881971548
 23
-77403.40082426001
 33
0.0
  0
MTEXT
  5
142
330
13B
100
AcDbEntity
  8
0
 62
   200
 48
0.6
370
    25
100
AcDbMText
 10
160220.8881971548
 20
-77212.40082426
 30
0.0
 40
25.4
 41
0.0
 46
0.0
 71
     5
 72
     1
  1
\A1;382
 11
0.0000000000000001
 21
1.0
 31
0.0
 73
     1
 44
1.0
  0
POINT
  5
143
330
13B
100
AcDbEntity
  8
Defpoints
 62
     0
 48
0.6
370
    25
100
AcDbPoint
 10
160308.2645560666
 20
-77021.40082426001
 30
0.0
  0
POINT
  5
144
330
13B
100
AcDbEntity
  8
Defpoints
 62
     0
 48
0.6
370
    25
100
AcDbPoint
 10
160308.2645560666
 20
-77403.40082426001
 30
0.0
  0
POINT
  5
145
330
13B
100
AcDbEntity
  8
Defpoints
 62
     0
 48
0.6
370
    25
100
AcDbPoint
 10
160234.0881971548
 20
-77403.40082426001
 30
0.0
  0
ENDBLK
  5
146
330
13B
100
AcDbEntity
  8
0
 48
0.6
370
    25
100
AcDbBlockEnd
  0
BLOCK
  5
148
330
147
100
AcDbEntity
  8
0
 48
0.6
370
    25
100
AcDbBlockBegin
  2
*D4
 70
     1
 10
0.0
 20
0.0
 30
0.0
  3
*D4
  1

  0
LINE
  5
149
330
147
100
AcDbEntity
  8
0
 62
   104
 48
0.6
370
     9
100
AcDbLine
 10
160435.4020169761
 20
-77125.17739922942
 30
0.0
 11
160508.2284682497
 21
-77042.65022482813
 31
0.0
  0
MTEXT
  5
14A
330
147
100
AcDbEntity
  8
0
 62
   200
 48
0.6
370
    25
100
AcDbMText
 10
160454.6395725628
 20
-77083.427645052
 30
0.0
 40
25.4
 41
0.0
 46
0.0
 71
     5
 72
     1
  1
\A1;4-R19
 11
0.6616643227382438
 21
0.7498001893940419
 31
0.0
 73
     1
 44
1.0
  0
SOLID
  5
14B
330
147
100
AcDbEntity
  8
0
 62
   104
 48
0.6
370
    25
100
AcDbTrace
 10
160505.4792008886
 20
-77040.22412231142
 30
0.0
 11
160510.9777356107
 21
-77045.07632734483
 31
0.0
 12
160522.7850833499
 22
-77026.15462066146
 32
0.0
 13
160522.7850833499
 23
-77026.15462066146
 33
0.0
  0
POINT
  5
14C
330
147
100
AcDbEntity
  8
Defpoints
 62
     0
 48
0.6
370
    25
100
AcDbPoint
 10
160522.7850833499
 20
-77026.15462066146
 30
0.0
  0
POINT
  5
14D
330
147
100
AcDbEntity
  8
Defpoints
 62
     0
 48
0.6
370
    25
100
AcDbPoint
 10
160510.2134612178
 20
-77040.40082425995
 30
0.0
  0
ENDBLK
  5
14E
330
147
100
AcDbEntity
  8
0
 48
0.6
370
    25
100
AcDbBlockEnd
  0
BLOCK
  5
192
330
188
100
AcDbEntity
  8
0
100
AcDbBlockBegin
  2
*D6
 70
     1
 10
0.0
 20
0.0
 30
0.0
  3
*D6
  1

  0
LINE
  5
189
330
188
100
AcDbEntity
  8
0
 62
   104
 48
0.6
370
     9
100
AcDbLine
 10
1112.872282432994
 20
743.4082569139227
 30
0.0
 11
1112.872282432994
 21
820.6892503574872
 31
0.0
  0
LINE
  5
18A
330
188
100
AcDbEntity
  8
0
 62
   104
 48
0.6
370
     9
100
AcDbLine
 10
1367.872282432994
 20
743.4082569139227
 30
0.0
 11
1367.872282432994
 21
820.6892503574872
 31
0.0
  0
LINE
  5
18B
330
188
100
AcDbEntity
  8
0
 62
   104
 48
0.6
370
     9
100
AcDbLine
 10
1134.872282432994
 20
819.4392503574873
 30
0.0
 11
1345.872282432994
 21
819.4392503574873
 31
0.0
  0
SOLID
  5
18C
330
188
100
AcDbEntity
  8
0
 62
   104
 48
0.6
100
AcDbTrace
 10
1134.872282432994
 20
823.1059170241538
 30
0.0
 11
1134.872282432994
 21
815.7725836908205
 31
0.0
 12
1112.872282432994
 22
819.4392503574873
 32
0.0
 13
1112.872282432994
 23
819.4392503574873
 33
0.0
  0
SOLID
  5
18D
330
188
100
AcDbEntity
  8
0
 62
   104
 48
0.6
100
AcDbTrace
 10
1345.872282432994
 20
823.1059170241538
 30
0.0
 11
1345.872282432994
 21
815.7725836908205
 31
0.0
 12
1367.872282432994
 22
819.4392503574873
 32
0.0
 13
1367.872282432994
 23
819.4392503574873
 33
0.0
  0
MTEXT
  5
18E
330
188
100
AcDbEntity
  8
0
 62
   200
 48
0.6
370
    25
100
AcDbMText
 10
1240.372282432994
 20
832.6392503574872
 30
0.0
 40
25.4
 41
0.0
 46
0.0
 71
     5
 72
     1
  1
\A1;255
 73
     1
 44
1.0
  0
POINT
  5
18F
330
188
100
AcDbEntity
  8
Defpoints
 62
     0
 48
0.6
100
AcDbPoint
 10
1112.872282432994
 20
741.4082569139227
 30
0.0
  0
POINT
  5
190
330
188
100
AcDbEntity
  8
Defpoints
 62
     0
 48
0.6
100
AcDbPoint
 10
1367.872282432994
 20
741.4082569139227
 30
0.0
  0
POINT
  5
191
330
188
100
AcDbEntity
  8
Defpoints
 62
     0
 48
0.6
100
AcDbPoint
 10
1367.872282432994
 20
819.4392503574873
 30
0.0
  0
ENDBLK
  5
193
330
188
100
AcDbEntity
  8
0
100
AcDbBlockEnd
  0
BLOCK
  5
19E
330
194
100
AcDbEntity
  8
0
100
AcDbBlockBegin
  2
*D7
 70
     1
 10
0.0
 20
0.0
 30
0.0
  3
*D7
  1

  0
LINE
  5
1A8
330
194
100
AcDbEntity
  8
0
 62
   104
 48
0.6
370
     9
100
AcDbLine
 10
1144.923377281773
 20
786.4280292988486
 30
0.0
 11
1071.497018369983
 21
786.4280292988486
 31
0.0
  0
LINE
  5
1A9
330
194
100
AcDbEntity
  8
0
 62
   104
 48
0.6
370
     9
100
AcDbLine
 10
1144.923377281773
 20
404.4280292988486
 30
0.0
 11
1071.497018369982
 21
404.4280292988486
 31
0.0
  0
LINE
  5
1AA
330
194
100
AcDbEntity
  8
0
 62
   104
 48
0.6
370
     9
100
AcDbLine
 10
1072.747018369982
 20
764.4280292988486
 30
0.0
 11
1072.747018369982
 21
426.4280292988486
 31
0.0
  0
SOLID
  5
1AB
330
194
100
AcDbEntity
  8
0
 62
   104
 48
0.6
100
AcDbTrace
 10
1069.080351703316
 20
764.4280292988486
 30
0.0
 11
1076.413685036649
 21
764.4280292988486
 31
0.0
 12
1072.747018369982
 22
786.4280292988486
 32
0.0
 13
1072.747018369982
 23
786.4280292988486
 33
0.0
  0
SOLID
  5
1AC
330
194
100
AcDbEntity
  8
0
 62
   104
 48
0.6
100
AcDbTrace
 10
1069.080351703316
 20
426.4280292988486
 30
0.0
 11
1076.413685036649
 21
426.4280292988486
 31
0.0
 12
1072.747018369982
 22
404.4280292988486
 32
0.0
 13
1072.747018369982
 23
404.4280292988486
 33
0.0
  0
MTEXT
  5
1AD
330
194
100
AcDbEntity
  8
0
 62
   200
 48
0.6
370
    25
100
AcDbMText
 10
1059.547018369982
 20
595.4280292988487
 30
0.0
 40
25.4
 41
0.0
 46
0.0
 71
     5
 72
     1
  1
\A1;382
 11
0.0000000000000001
 21
1.0
 31
0.0
 73
     1
 44
1.0
  0
POINT
  5
1AE
330
194
100
AcDbEntity
  8
Defpoints
 62
     0
 48
0.6
100
AcDbPoint
 10
1146.923377281773
 20
786.4280292988486
 30
0.0
  0
POINT
  5
1AF
330
194
100
AcDbEntity
  8
Defpoints
 62
     0
 48
0.6
100
AcDbPoint
 10
1146.923377281773
 20
404.4280292988486
 30
0.0
  0
POINT
  5
1B0
330
194
100
AcDbEntity
  8
Defpoints
 62
     0
 48
0.6
100
AcDbPoint
 10
1072.747018369982
 20
404.4280292988486
 30
0.0
  0
ENDBLK
  5
19F
330
194
100
AcDbEntity
  8
0
100
AcDbBlockEnd
  0
BLOCK
  5
1A6
330
1A0
100
AcDbEntity
  8
0
100
AcDbBlockBegin
  2
*D8
 70
     1
 10
0.0
 20
0.0
 30
0.0
  3
*D8
  1

  0
LINE
  5
1B1
330
1A0
100
AcDbEntity
  8
0
 62
   104
 48
0.6
370
     9
100
AcDbLine
 10
1258.841823585437
 20
665.4052168623127
 30
0.0
 11
1346.887289464816
 21
765.1786287307097
 31
0.0
  0
MTEXT
  5
1B2
330
1A0
100
AcDbEntity
  8
0
 62
   200
 48
0.6
370
    25
100
AcDbMText
 10
1285.688886475006
 20
715.7780897733805
 30
0.0
 40
25.4
 41
0.0
 46
0.0
 71
     5
 72
     1
  1
\A1;4-R19
 11
0.6616643227408278
 21
0.7498001893917618
 31
0.0
 73
     1
 44
1.0
  0
SOLID
  5
1B3
330
1A0
100
AcDbEntity
  8
0
 62
   104
 48
0.6
100
AcDbTrace
 10
1344.138022103713
 20
767.6047312474261
 30
0.0
 11
1349.636556825919
 21
762.7525262139934
 31
0.0
 12
1361.443904565114
 22
781.6742328973284
 32
0.0
 13
1361.443904565114
 23
781.6742328973284
 33
0.0
  0
POINT
  5
1B4
330
1A0
100
AcDbEntity
  8
Defpoints
 62
     0
 48
0.6
100
AcDbPoint
 10
1361.443904565114
 20
781.6742328973284
 30
0.0
  0
POINT
  5
1B5
330
1A0
100
AcDbEntity
  8
Defpoints
 62
     0
 48
0.6
100
AcDbPoint
 10
1348.872282432994
 20
767.4280292988351
 30
0.0
  0
ENDBLK
  5
1A7
330
1A0
100
AcDbEntity
  8
0
100
AcDbBlockEnd
  0
ENDSEC
  0
SECTION
  2
ENTITIES
  0
LINE
  5
176
102
{ACAD_REACTORS
330
183
102
}
330
1F
100
AcDbEntity
  8
6下模板
 48
0.6
370
    25
100
AcDbLine
 10
1131.872282432994
 20
786.4280292988496
 30
0.0
 11
1348.872282432994
 21
786.428029298835
 31
0.0
  0
ARC
  5
177
330
1F
100
AcDbEntity
  8
6下模板
 48
0.6
370
    25
100
AcDbCircle
 10
1131.872282432994
 20
767.4280292988497
 30
0.0
 40
19.0
100
AcDbArc
 50
90.0
 51
180.0
  0
LINE
  5
178
102
{ACAD_REACTORS
330
180
102
}
330
1F
100
AcDbEntity
  8
6下模板
 48
0.6
370
    25
100
AcDbLine
 10
1367.872282432994
 20
767.4280292988351
 30
0.0
 11
1367.872282432994
 21
423.4280292988496
 31
0.0
  0
ARC
  5
179
330
1F
100
AcDbEntity
  8
6下模板
 48
0.6
370
    25
100
AcDbCircle
 10
1348.872282432994
 20
423.4280292988496
 30
0.0
 40
19.0
100
AcDbArc
 50
270.0
 51
0.0
  0
ARC
  5
17A
102
{ACAD_REACTORS
330
186
102
}
330
1F
100
AcDbEntity
  8
6下模板
 48
0.6
370
    25
100
AcDbCircle
 10
1348.872282432994
 20
767.4280292988351
 30
0.0
 40
19.0
100
AcDbArc
 50
0.0
 51
90.0
  0
LINE
  5
17B
102
{ACAD_REACTORS
330
183
102
}
330
1F
100
AcDbEntity
  8
6下模板
 48
0.6
370
    25
100
AcDbLine
 10
1348.872282432994
 20
404.4280292988496
 30
0.0
 11
1131.872282432994
 21
404.4280292988496
 31
0.0
  0
LINE
  5
17C
102
{ACAD_REACTORS
330
180
102
}
330
1F
100
AcDbEntity
  8
6下模板
 48
0.6
370
    25
100
AcDbLine
 10
1112.872282432994
 20
423.4280292988496
 30
0.0
 11
1112.872282432994
 21
767.4280292988497
 31
0.0
  0
ARC
  5
17D
330
1F
100
AcDbEntity
  8
6下模板
 48
0.6
370
    25
100
AcDbCircle
 10
1131.872282432994
 20
423.4280292988496
 30
0.0
 40
19.0
100
AcDbArc
 50
180.0
 51
270.0
  0
DIMENSION
  5
17E
102
{ACAD_XDICTIONARY
360
17F
102
}
102
{ACAD_REACTORS
330
180
102
}
330
1F
100
AcDbEntity
  8
0
 48
0.6
370
    25
100
AcDbDimension
  2
*D6
 10
1367.872282432994
 20
819.4392503574873
 30
0.0
 11
1240.372282432994
 21
832.6392503574872
 31
0.0
 70
    32
 71
     5
 42
255.0
 73
     0
 74
     0
 75
     0
  3
usally
100
AcDbAlignedDimension
 13
1112.872282432994
 23
741.4082569139227
 33
0.0
 14
1367.872282432994
 24
741.4082569139227
 34
0.0
100
AcDbRotatedDimension
1001
ACAD
1000
DSTYLE
1002
{
1070
    50
1040
1.570796326794896
1070
   345
1005
15
1070
   346
1005
15
1070
   347
1005
15
1002
}
  0
DIMENSION
  5
181
102
{ACAD_XDICTIONARY
360
182
102
}
102
{ACAD_REACTORS
330
183
102
}
330
1F
100
AcDbEntity
  8
0
 48
0.6
370
    25
100
AcDbDimension
  2
*D7
 10
1072.747018369982
 20
404.4280292988486
 30
0.0
 11
1059.547018369982
 21
595.4280292988487
 31
0.0
 70
    32
 71
     5
 42
382.0
 73
     0
 74
     0
 75
     0
  3
usally
100
AcDbAlignedDimension
 13
1146.923377281773
 23
786.4280292988486
 33
0.0
 14
1146.923377281773
 24
404.4280292988486
 34
0.0
 50
90.0
100
AcDbRotatedDimension
1001
ACAD
1000
DSTYLE
1002
{
1070
    50
1040
1.570796326794896
1070
   345
1005
15
1070
   346
1005
15
1070
   347
1005
15
1002
}
  0
DIMENSION
  5
184
102
{ACAD_XDICTIONARY
360
185
102
}
102
{ACAD_REACTORS
330
186
102
}
330
1F
100
AcDbEntity
  8
0
 48
0.6
370
    25
100
AcDbDimension
  2
*D8
 10
1348.872282432994
 20
767.4280292988351
 30
0.0
 11
1295.586248974977
 21
707.0441207132015
 31
0.0
 70
   164
  1
4-<>
 71
     5
 42
19.00000000006662
 73
     0
 74
     0
 75
     0
  3
usally
100
AcDbRadialDimension
 15
1361.443904565114
 25
781.6742328973284
 35
0.0
 40
0.0
1001
ACAD
1000
DSTYLE
1002
{
1070
    50
1040
1.570796326794896
1070
   345
1005
15
1070
   346
1005
15
1070
   347
1005
15
1002
}
  0
MTEXT
  5
187
330
1F
100
AcDbEntity
  8
6下模板
 48
0.6
370
    25
100
AcDbMText
 10
1088.39277925842
 20
915.9368972269385
 30
0.0
 40
50.0
 41
346.4213102298963
 46
0.0
 71
     1
 72
     5
  1
PLZ-03
 73
     1
 44
1.0
  0
ENDSEC
  0
SECTION
  2
OBJECTS
  0
DICTIONARY
  5
C
330
0
100
AcDbDictionary
281
     1
  3
ACAD_COLOR
350
6B
  3
ACAD_GROUP
350
D
  3
ACAD_LAYOUT
350
1A
  3
ACAD_MATERIAL
350
6A
  3
ACAD_MLINESTYLE
350
17
  3
ACAD_PLOTSETTINGS
350
19
  3
ACAD_PLOTSTYLENAME
350
E
  3
ACAD_TABLESTYLE
350
7E
  3
ACAD_VISUALSTYLE
350
F0
  3
AcDbVariableDictionary
350
5E
  0
DICTIONARY
  5
15B
330
2
100
AcDbDictionary
280
     1
281
     1
  3
ACAD_LAYERSTATES
360
15C
  0
DICTIONARY
  5
17F
330
17E
100
AcDbDictionary
280
     1
281
     1
  3
ACAD_DIMASSOC
360
180
  0
DICTIONARY
  5
182
330
181
100
AcDbDictionary
280
     1
281
     1
  3
ACAD_DIMASSOC
360
183
  0
DICTIONARY
  5
185
330
184
100
AcDbDictionary
280
     1
281
     1
  3
ACAD_DIMASSOC
360
186
  0
DICTIONARY
  5
6B
102
{ACAD_REACTORS
330
C
102
}
330
C
100
AcDbDictionary
281
     1
  0
DICTIONARY
  5
D
102
{ACAD_REACTORS
330
C
102
}
330
C
100
AcDbDictionary
281
     1
  0
DICTIONARY
  5
1A
102
{ACAD_REACTORS
330
C
102
}
330
C
100
AcDbDictionary
281
     1
  3
Model
350
22
  3
布局1
350
D3
  3
布局2
350
D7
  0
DICTIONARY
  5
6A
102
{ACAD_REACTORS
330
C
102
}
330
C
100
AcDbDictionary
281
     1
  3
ByBlock
350
EE
  3
ByLayer
350
ED
  3
Global
350
EF
  0
DICTIONARY
  5
17
102
{ACAD_REACTORS
330
C
102
}
330
C
100
AcDbDictionary
281
     1
  3
Standard
350
18
  0
DICTIONARY
  5
19
102
{ACAD_REACTORS
330
C
102
}
330
C
100
AcDbDictionary
281
     1
  0
ACDBDICTIONARYWDFLT
  5
E
102
{ACAD_REACTORS
330
C
102
}
330
C
100
AcDbDictionary
281
     1
  3
Normal
350
F
100
AcDbDictionaryWithDefault
340
F
  0
DICTIONARY
  5
7E
102
{ACAD_REACTORS
330
C
102
}
330
C
100
AcDbDictionary
281
     1
  3
Standard
350
7F
  0
DICTIONARY
  5
F0
102
{ACAD_REACTORS
330
C
102
}
330
C
100
AcDbDictionary
281
     1
  3
2dWireframe
350
F6
  3
3D Hidden
350
F8
  3
3dWireframe
350
F7
  3
Basic
350
F5
  3
Brighten
350
FC
  3
ColorChange
350
100
  3
Conceptual
350
F9
  3
Dim
350
FB
  3
Facepattern
350
FF
  3
Flat
350
F1
  3
FlatWithEdges
350
F2
  3
Gouraud
350
F3
  3
GouraudWithEdges
350
F4
  3
Linepattern
350
FE
  3
Realistic
350
FA
  3
Thicken
350
FD
  0
DICTIONARY
  5
5E
102
{ACAD_REACTORS
330
C
102
}
330
C
100
AcDbDictionary
281
     1
  3
CTABLESTYLE
350
84
  3
DIMASSOC
350
5F
  3
HIDETEXT
350
63
  0
DICTIONARY
  5
15C
102
{ACAD_REACTORS
330
15B
102
}
330
15B
100
AcDbDictionary
281
     1
  0
DIMASSOC
  5
180
102
{ACAD_REACTORS
330
17F
102
}
330
17F
100
AcDbDimAssoc
330
17E
 90
        3
 70
     0
 71
     0
  1
AcDbOsnapPointRef
 72
    10
331
17C
 73
     2
 91
        0
 40
0.9243611267880032
 10
0.0
 20
0.0
 30
0.0
 75
     0
  1
AcDbOsnapPointRef
 72
     8
331
178
 73
     2
 91
        0
 40
0.0756388732119577
 10
0.0
 20
0.0
 30
0.0
 75
     1
  1
AcDbOsnapPointRef
 72
    10
331
17C
 73
     2
 91
        0
 40
0.9243611267880032
 10
0.0
 20
0.0
 30
0.0
 75
     0
  0
DIMASSOC
  5
183
102
{ACAD_REACTORS
330
182
102
}
330
182
100
AcDbDimAssoc
330
181
 90
        3
 70
     0
 71
     0
  1
AcDbOsnapPointRef
 72
    10
331
176
 73
     2
 91
        0
 40
0.0693598840957559
 10
0.0
 20
0.0
 30
0.0
 75
     0
  1
AcDbOsnapPointRef
 72
     8
331
17B
 73
     2
 91
        0
 40
0.930640115904244
 10
0.0
 20
0.0
 30
0.0
 75
     1
  1
AcDbOsnapPointRef
 72
    10
331
176
 73
     2
 91
        0
 40
0.0693598840957559
 10
0.0
 20
0.0
 30
0.0
 75
     0
  0
DIMASSOC
  5
186
102
{ACAD_REACTORS
330
185
102
}
330
185
100
AcDbDimAssoc
330
184
 90
        2
 70
     0
 71
     0
  1
AcDbOsnapPointRef
 72
     3
331
17A
 73
     2
 91
        0
 40
0.0
 10
0.0
 20
0.0
 30
0.0
 75
     0
  0
LAYOUT
  5
22
102
{ACAD_REACTORS
330
1A
102
}
330
1A
100
AcDbPlotSettings
  1

  2
none_device
  4
ISO_A4_(210.00_x_297.00_MM)
  6

 40
7.5
 41
20.0
 42
7.5
 43
20.0
 44
210.0
 45
297.0
 46
11.54999923706054
 47
-13.65000009536743
 48
0.0
 49
0.0
140
0.0
141
0.0
142
1.0
143
8.704084754739808
 70
 11952
 72
     1
 73
     0
 74
     0
  7

 75
     0
147
0.1148885871608098
 76
     0
 77
     2
 78
   300
148
0.0
149
0.0
100
AcDbLayout
  1
Model
 70
     1
 71
     0
 10
0.0
 20
0.0
 11
12.0
 21
9.0
 12
0.0
 22
0.0
 32
0.0
 14
0.0
 24
0.0
 34
0.0
 15
0.0
 25
0.0
 35
0.0
146
0.0
 13
0.0
 23
0.0
 33
0.0
 16
1.0
 26
0.0
 36
0.0
 17
0.0
 27
1.0
 37
0.0
 76
     0
330
1F
331
EB
1001
ACAD_PSEXT
1000
None
1000
None
1000
Not applicable
1000
The layout will not be plotted unless a new plotter configuration name is selected.
1070
     0
  0
LAYOUT
  5
D3
102
{ACAD_REACTORS
330
1A
102
}
330
1A
100
AcDbPlotSettings
  1

  2
C:\Documents and Settings\basas\Application Data\Autodesk\AutoCAD 2005\R16.1\enu\plotters\Default Windows System Printer.pc3
  4

  6

 40
0.0
 41
0.0
 42
0.0
 43
0.0
 44
0.0
 45
0.0
 46
0.0
 47
0.0
 48
0.0
 49
0.0
140
0.0
141
0.0
142
1.0
143
1.0
 70
   688
 72
     0
 73
     0
 74
     5
  7

 75
    16
147
1.0
 76
     0
 77
     2
 78
   300
148
0.0
149
0.0
100
AcDbLayout
  1
布局1
 70
     1
 71
     1
 10
0.0
 20
0.0
 11
12.0
 21
9.0
 12
0.0
 22
0.0
 32
0.0
 14
0.0
 24
0.0
 34
0.0
 15
0.0
 25
0.0
 35
0.0
146
0.0
 13
0.0
 23
0.0
 33
0.0
 16
1.0
 26
0.0
 36
0.0
 17
0.0
 27
1.0
 37
0.0
 76
     0
330
D2
  0
LAYOUT
  5
D7
102
{ACAD_REACTORS
330
1A
102
}
330
1A
100
AcDbPlotSettings
  1

  2
C:\Documents and Settings\basas\Application Data\Autodesk\AutoCAD 2005\R16.1\enu\plotters\Default Windows System Printer.pc3
  4

  6

 40
0.0
 41
0.0
 42
0.0
 43
0.0
 44
0.0
 45
0.0
 46
0.0
 47
0.0
 48
0.0
 49
0.0
140
0.0
141
0.0
142
1.0
143
1.0
 70
   688
 72
     0
 73
     0
 74
     5
  7

 75
    16
147
1.0
 76
     0
 77
     2
 78
   300
148
0.0
149
0.0
100
AcDbLayout
  1
布局2
 70
     1
 71
     2
 10
0.0
 20
0.0
 11
12.0
 21
9.0
 12
0.0
 22
0.0
 32
0.0
 14
0.0
 24
0.0
 34
0.0
 15
0.0
 25
0.0
 35
0.0
146
0.0
 13
0.0
 23
0.0
 33
0.0
 16
1.0
 26
0.0
 36
0.0
 17
0.0
 27
1.0
 37
0.0
 76
     0
330
D6
  0
MATERIAL
  5
EE
102
{ACAD_REACTORS
330
6A
102
}
330
6A
100
AcDbMaterial
  1
ByBlock
  0
MATERIAL
  5
ED
102
{ACAD_REACTORS
330
6A
102
}
330
6A
100
AcDbMaterial
  1
ByLayer
  0
MATERIAL
  5
EF
102
{ACAD_REACTORS
330
6A
102
}
330
6A
100
AcDbMaterial
  1
Global
  0
MLINESTYLE
  5
18
102
{ACAD_REACTORS
330
17
102
}
330
17
100
AcDbMlineStyle
  2
STANDARD
 70
     0
  3

 62
   256
 51
90.0
 52
90.0
 71
     2
 49
0.5
 62
   256
  6
BYLAYER
 49
-0.5
 62
   256
  6
BYLAYER
  0
ACDBPLACEHOLDER
  5
F
102
{ACAD_REACTORS
330
E
102
}
330
E
  0
TABLESTYLE
  5
7F
102
{ACAD_REACTORS
330
7E
102
}
330
7E
100
AcDbTableStyle
  3
Standard
 70
     0
 71
     0
 40
1.5
 41
1.5
280
     0
281
     0
  7
Standard
140
4.5
170
     2
 62
     0
 63
     7
283
     0
 90
      512
 91
        0
  1

274
    -2
284
     1
 64
     0
275
    -2
285
     1
 65
     0
276
    -2
286
     1
 66
     0
277
    -2
287
     1
 67
     0
278
    -2
288
     1
 68
     0
279
    -2
289
     1
 69
     0
  7
Standard
140
6.0
170
     5
 62
     0
 63
     7
283
     0
 90
      512
 91
        0
  1

274
    -2
284
     1
 64
     0
275
    -2
285
     1
 65
     0
276
    -2
286
     1
 66
     0
277
    -2
287
     1
 67
     0
278
    -2
288
     1
 68
     0
279
    -2
289
     1
 69
     0
  7
Standard
140
4.5
170
     5
 62
     0
 63
     7
283
     0
 90
      512
 91
        0
  1

274
    -2
284
     1
 64
     0
275
    -2
285
     1
 65
     0
276
    -2
286
     1
 66
     0
277
    -2
287
     1
 67
     0
278
    -2
288
     1
 68
     0
279
    -2
289
     1
 69
     0
  0
VISUALSTYLE
  5
F6
102
{ACAD_REACTORS
330
F0
102
}
330
F0
100
AcDbVisualStyle
  2
2dWireframe
 70
     4
 71
     0
 72
     2
 73
     1
 90
        0
 40
-0.6
 41
-30.0
 62
     5
 63
     7
421
 16777215
 74
     1
 91
        4
 64
     7
 65
   257
 75
     1
175
     1
 42
1.0
 92
        0
 66
   257
 43
1.0
 76
     1
 77
     6
 78
     2
 67
     7
 79
     5
170
     0
171
     0
290
     0
174
     0
 93
        1
 44
0.0
173
     0
291
     0
 45
0.0
  0
VISUALSTYLE
  5
F8
102
{ACAD_REACTORS
330
F0
102
}
330
F0
100
AcDbVisualStyle
  2
3D Hidden
 70
     6
 71
     1
 72
     2
 73
     2
 90
        0
 40
-0.6
 41
-30.0
 62
     5
 63
     7
421
 16777215
 74
     2
 91
        2
 64
     7
 65
   257
 75
     2
175
     1
 42
40.0
 92
        0
 66
   257
 43
1.0
 76
     1
 77
     6
 78
     2
 67
     7
 79
     3
170
     0
171
     0
290
     0
174
     0
 93
        1
 44
0.0
173
     0
291
     0
 45
0.0
  0
VISUALSTYLE
  5
F7
102
{ACAD_REACTORS
330
F0
102
}
330
F0
100
AcDbVisualStyle
  2
3dWireframe
 70
     5
 71
     0
 72
     2
 73
     1
 90
        0
 40
-0.6
 41
-30.0
 62
     5
 63
     7
421
 16777215
 74
     1
 91
        4
 64
     7
 65
   257
 75
     1
175
     1
 42
1.0
 92
        0
 66
   257
 43
1.0
 76
     1
 77
     6
 78
     2
 67
     7
 79
     5
170
     0
171
     0
290
     0
174
     0
 93
        1
 44
0.0
173
     0
291
     0
 45
0.0
  0
VISUALSTYLE
  5
F5
102
{ACAD_REACTORS
330
F0
102
}
330
F0
100
AcDbVisualStyle
  2
Basic
 70
     7
 71
     1
 72
     0
 73
     1
 90
        0
 40
-0.6
 41
-30.0
 62
     5
 63
     7
421
 16777215
 74
     0
 91
        4
 64
     7
 65
   257
 75
     1
175
     1
 42
1.0
 92
        8
 66
     7
 43
1.0
 76
     1
 77
     6
 78
     2
 67
     7
 79
     5
170
     0
171
     0
290
     0
174
     0
 93
        1
 44
0.0
173
     0
291
     1
 45
0.0
  0
VISUALSTYLE
  5
FC
102
{ACAD_REACTORS
330
F0
102
}
330
F0
100
AcDbVisualStyle
  2
Brighten
 70
    12
 71
     2
 72
     2
 73
     1
 90
        0
 40
-0.6
 41
-30.0
 62
     5
 63
     7
421
 16777215
 74
     1
 91
        4
 64
     7
 65
   257
 75
     1
175
     1
 42
1.0
 92
        8
 66
     7
 43
1.0
 76
     1
 77
     6
 78
     2
 67
     7
 79
     5
170
     0
171
     0
290
     0
174
     0
 93
        1
 44
50.0
173
     0
291
     1
 45
0.0
  0
VISUALSTYLE
  5
100
102
{ACAD_REACTORS
330
F0
102
}
330
F0
100
AcDbVisualStyle
  2
ColorChange
 70
    16
 71
     2
 72
     2
 73
     3
 90
        0
 40
-0.6
 41
-30.0
 62
     5
 63
     8
421
  8421504
 74
     1
 91
        4
 64
     7
 65
   257
 75
     1
175
     1
 42
1.0
 92
        8
 66
     8
424
  8421504
 43
1.0
 76
     1
 77
     6
 78
     2
 67
     7
 79
     5
170
     0
171
     0
290
     0
174
     0
 93
        1
 44
0.0
173
     0
291
     1
 45
0.0
  0
VISUALSTYLE
  5
F9
102
{ACAD_REACTORS
330
F0
102
}
330
F0
100
AcDbVisualStyle
  2
Conceptual
 70
     9
 71
     3
 72
     2
 73
     1
 90
        0
 40
-0.6
 41
-30.0
 62
     5
 63
     7
421
 16777215
 74
     2
 91
        2
 64
     7
 65
   257
 75
     1
175
     1
 42
40.0
 92
        8
 66
     7
 43
1.0
 76
     1
 77
     6
 78
     2
 67
     7
 79
     3
170
     0
171
     0
290
     0
174
     0
 93
        1
 44
0.0
173
     0
291
     0
 45
0.0
  0
VISUALSTYLE
  5
FB
102
{ACAD_REACTORS
330
F0
102
}
330
F0
100
AcDbVisualStyle
  2
Dim
 70
    11
 71
     2
 72
     2
 73
     1
 90
        0
 40
-0.6
 41
-30.0
 62
     5
 63
     7
421
 16777215
 74
     1
 91
        4
 64
     7
 65
   257
 75
     1
175
     1
 42
1.0
 92
        8
 66
     7
 43
1.0
 76
     1
 77
     6
 78
     2
 67
     7
 79
     5
170
     0
171
     0
290
     0
174
     0
 93
        1
 44
-50.0
173
     0
291
     1
 45
0.0
  0
VISUALSTYLE
  5
FF
102
{ACAD_REACTORS
330
F0
102
}
330
F0
100
AcDbVisualStyle
  2
Facepattern
 70
    15
 71
     2
 72
     2
 73
     1
 90
        0
 40
-0.6
 41
-30.0
 62
     5
 63
     7
421
 16777215
 74
     1
 91
        4
 64
     7
 65
   257
 75
     1
175
     1
 42
1.0
 92
        8
 66
     7
 43
1.0
 76
     1
 77
     6
 78
     2
 67
     7
 79
     5
170
     0
171
     0
290
     0
174
     0
 93
        1
 44
0.0
173
     0
291
     1
 45
0.0
  0
VISUALSTYLE
  5
F1
102
{ACAD_REACTORS
330
F0
102
}
330
F0
100
AcDbVisualStyle
  2
Flat
 70
     0
 71
     2
 72
     1
 73
     1
 90
        2
 40
-0.6
 41
30.0
 62
     5
 63
     7
421
 16777215
 74
     0
 91
        4
 64
     7
 65
   257
 75
     1
175
     1
 42
1.0
 92
        8
 66
     7
 43
1.0
 76
     1
 77
     6
 78
     2
 67
     7
 79
     5
170
     0
171
     0
290
     0
174
     0
 93
        1
 44
0.0
173
     0
291
     1
 45
0.0
  0
VISUALSTYLE
  5
F2
102
{ACAD_REACTORS
330
F0
102
}
330
F0
100
AcDbVisualStyle
  2
FlatWithEdges
 70
     1
 71
     2
 72
     1
 73
     1
 90
        2
 40
-0.6
 41
30.0
 62
     5
 63
     7
421
 16777215
 74
     1
 91
        4
 64
     7
 65
   257
 75
     1
175
     1
 42
1.0
 92
        0
 66
   257
 43
1.0
 76
     1
 77
     6
 78
     2
 67
     7
 79
     5
170
     0
171
     0
290
     0
174
     0
 93
        1
 44
0.0
173
     0
291
     1
 45
0.0
  0
VISUALSTYLE
  5
F3
102
{ACAD_REACTORS
330
F0
102
}
330
F0
100
AcDbVisualStyle
  2
Gouraud
 70
     2
 71
     2
 72
     2
 73
     1
 90
        2
 40
-0.6
 41
30.0
 62
     5
 63
     7
421
 16777215
 74
     0
 91
        4
 64
     7
 65
   257
 75
     1
175
     1
 42
1.0
 92
        0
 66
     7
 43
1.0
 76
     1
 77
     6
 78
     2
 67
     7
 79
     5
170
     0
171
     0
290
     0
174
     0
 93
        1
 44
0.0
173
     0
291
     1
 45
0.0
  0
VISUALSTYLE
  5
F4
102
{ACAD_REACTORS
330
F0
102
}
330
F0
100
AcDbVisualStyle
  2
GouraudWithEdges
 70
     3
 71
     2
 72
     2
 73
     1
 90
        2
 40
-0.6
 41
30.0
 62
     5
 63
     7
421
 16777215
 74
     1
 91
        4
 64
     7
 65
   257
 75
     1
175
     1
 42
1.0
 92
        0
 66
   257
 43
1.0
 76
     1
 77
     6
 78
     2
 67
     7
 79
     5
170
     0
171
     0
290
     0
174
     0
 93
        1
 44
0.0
173
     0
291
     1
 45
0.0
  0
VISUALSTYLE
  5
FE
102
{ACAD_REACTORS
330
F0
102
}
330
F0
100
AcDbVisualStyle
  2
Linepattern
 70
    14
 71
     2
 72
     2
 73
     1
 90
        0
 40
-0.6
 41
-30.0
 62
     5
 63
     7
421
 16777215
 74
     1
 91
        4
 64
     7
 65
   257
 75
     7
175
     7
 42
1.0
 92
        8
 66
     7
 43
1.0
 76
     1
 77
     6
 78
     2
 67
     7
 79
     5
170
     0
171
     0
290
     0
174
     0
 93
        1
 44
0.0
173
     0
291
     1
 45
0.0
  0
VISUALSTYLE
  5
FA
102
{ACAD_REACTORS
330
F0
102
}
330
F0
100
AcDbVisualStyle
  2
Realistic
 70
     8
 71
     2
 72
     2
 73
     1
 90
        0
 40
-0.6
 41
-30.0
 62
     5
 63
     7
421
 16777215
 74
     1
 91
        0
 64
     7
 65
   257
 75
     1
175
     1
 42
1.0
 92
        8
 66
     8
424
  7895160
 43
1.0
 76
     1
 77
     6
 78
     2
 67
     7
 79
     5
170
     0
171
     0
290
     0
174
     0
 93
       13
 44
0.0
173
     0
291
     0
 45
0.0
  0
VISUALSTYLE
  5
FD
102
{ACAD_REACTORS
330
F0
102
}
330
F0
100
AcDbVisualStyle
  2
Thicken
 70
    13
 71
     2
 72
     2
 73
     1
 90
        0
 40
-0.6
 41
-30.0
 62
     5
 63
     7
421
 16777215
 74
     1
 91
        4
 64
     7
 65
   257
 75
     1
175
     1
 42
1.0
 92
       12
 66
     7
 43
1.0
 76
     1
 77
     6
 78
     2
 67
     7
 79
     5
170
     0
171
     0
290
     0
174
     0
 93
        1
 44
0.0
173
     0
291
     1
 45
0.0
  0
DICTIONARYVAR
  5
84
102
{ACAD_REACTORS
330
5E
102
}
330
5E
100
DictionaryVariables
280
     0
  1
STANDARD
  0
DICTIONARYVAR
  5
5F
102
{ACAD_REACTORS
330
5E
102
}
330
5E
100
DictionaryVariables
280
     0
  1
2
  0
DICTIONARYVAR
  5
63
102
{ACAD_REACTORS
330
5E
102
}
330
5E
100
DictionaryVariables
280
     0
  1
1
  0
ENDSEC
  0
EOF
